#TITLE:Dead end's healing vision;
#SUBTITLE:;
#ARTIST:DJSmalls;
#TITLETRANSLIT:;
#SUBTITLETRANSLIT:;
#ARTISTTRANSLIT:;
#CREDIT:;
#BANNER:Dead ends healing vision.png;
#BACKGROUND:Dead ends healing vision-bg.png;
#LYRICSPATH:;
#CDTITLE:cdtitle.png;
#MUSIC:Dead end's healing vision.mp3;
#OFFSET:-2.983;
#SAMPLESTART:39.190;
#SAMPLELENGTH:12.000;
#SELECTABLE:YES;
#BPMS:0.000=97.975,32.000=196.000,200.000=49.000,205.000=196.000,271.000=98.000;
#STOPS:;
#BGCHANGES:;
// cache tags:
#FIRSTBEAT:4.500;
#LASTBEAT:275.000;
#SONGFILENAME:Songs/Music V.I.P ^_^/Dead End's Healing Vision/Dead end's healing vision.sm;
#HASMUSIC:1;
#HASBANNER:1;
#MUSICLENGTH:109.200;
// end cache tags

//---------------dance-single - MANIAC----------------
#NOTES:
     dance-single:
     MANIAC:
     Hard:
     8:
     0.608,1.000,0.321,0.147,0.197,414.000,35.000,16.000,0.000,0.000:
0000
0000
0000
0000
,
0000
0000
0000
0000
,
0001
0000
0000
0000
0000
0000
0010
0000
0000
0000
0000
0000
0100
0000
0000
1000
0000
0000
0100
0000
0000
0000
0000
0000
0010
0000
0000
0000
0000
0000
0001
0000
0000
0000
0000
0000
1000
0000
0000
0001
0000
0000
0100
0000
0000
0000
0001
0000
,
1000
0000
0000
0000
0000
0000
0000
0000
0000
0000
1000
0000
0100
0000
0000
0000
0000
0000
0000
0000
0000
0000
0010
0000
0001
0000
0000
1000
0000
0000
0100
0000
0000
0010
0000
0000
0001
0000
0000
0010
0000
0000
0100
0000
0000
0000
0000
0000
,
0000
0000
1000
0100
0001
1000
0100
0001
0000
0010
0000
0100
0000
1000
0000
0000
,
0000
1000
1000
0000
0001
0100
0001
0000
0001
0010
1000
0010
0001
1000
0100
0001
,
0010
0000
1000
0100
0010
0001
0100
0010
0000
0100
0000
1000
0000
0100
0010
0000
,
0001
0000
0000
0000
0000
0000
1000
0000
0000
0000
0000
0000
0001
0000
0000
0100
0000
0000
0010
0000
0000
0000
0000
0000
2000
0000
0000
0000
0000
0000
0100
0000
0000
0001
0000
0000
0000
0010
0000
0000
0100
0000
3000
0000
0000
0000
0000
0000
,
0010
1000
0010
0000
0010
0001
0010
0000
,
1000
0000
0100
0000
0000
0100
0010
0000
,
1000
0100
1000
0000
1000
0010
1000
0000
,
0001
0000
0100
0000
0000
1000
0100
0000
,
0100
0001
0100
0000
0100
1000
0100
0000
,
0001
0000
0100
0000
0000
0001
1000
0000
,
0001
0010
0001
0000
0001
0100
0001
0000
,
1000
0000
0100
0000
0000
0001
0010
0000
,
1000
0010
0100
0001
0010
1000
0010
0100
,
0001
1000
0100
0000
0000
0001
0010
0000
,
0001
0010
0100
1000
0010
0001
0100
1000
,
0100
0010
0001
0000
0000
1000
0100
0000
,
0010
1000
0001
0100
0010
0001
0100
0010
,
1000
0100
1000
0000
0000
0001
0100
0000
,
0010
1000
0001
0100
0001
0010
1000
0000
,
1000
0001
1000
0001
0000
0100
0010
0000
,
0110
0000
0000
0011
0000
0101
0000
0000
,
1001
0000
0000
0101
0000
1010
0000
0000
,
0011
0000
0000
0110
0000
0101
0000
0000
,
0110
0000
0000
1001
0000
0101
0000
0000
,
0010
0100
1000
0001
0010
0100
0000
0000
,
1000
0100
0010
0100
0010
0001
1001
0000
,
0001
1000
0001
0100
0000
0010
1100
0000
,
0001
0010
0001
0100
0010
1000
0110
0000
,
0100
0010
0100
0010
1000
0010
0100
0001
,
0010
0100
1000
0001
0010
1000
0100
0001
,
0010
0001
1000
0010
0100
0010
1000
0100
,
0010
0001
0100
1000
0001
0010
0100
0000
,
0011
0101
1100
1010
,
0101
1100
0011
1010
,
0001
0000
1000
0000
,
0010
1000
0100
0000
,
0001
0000
0000
0000
0001
0000
0000
0000
0000
1000
0000
0000
1000
0000
0000
0000
1000
0000
0000
0000
0000
0001
0000
0000
,
1000
0000
0000
0000
1000
0000
0000
0000
0000
0001
0000
0000
0220
0000
0000
0000
0000
0000
0330
0000
0000
0000
0000
0000
,
0010
1000
0100
0000
0100
0001
0010
0000
,
1000
0100
0010
0000
0001
0010
0100
0000
,
0010
0100
0100
0000
1000
0001
0001
0000
,
0001
1000
1000
0000
1001
0000
0000
0000
,
2000
0000
0000
3000
1000
0100
0010
0000
,
0002
0000
0000
0003
0001
0010
0100
0000
,
0200
0000
0000
0300
0010
0010
0010
0000
,
0100
0100
0100
0000
0000
0000
0000
0000
,
1100
0022
0000
0033
0000
0000
0110
2002
3003
0011
2200
0000
3300
1010
0202
0303
,
1010
0022
0000
0033
1000
0000
0100
0000
0100
0000
0001
0000
0000
0000
0100
0000
,
0000
1000
0100
0010
0100
0001
0010
1000
,
0100
0000
0010
0100
0100
0001
0000
0100
,
0000
0000
0001
0010
0100
0010
0001
0010
,
0100
0000
0010
1000
0010
0001
0000
0001
,
0000
0000
0001
1000
0001
0100
0001
1000
,
0100
0000
0010
0100
0001
0100
0000
0010
,
0000
0000
0001
1000
0010
1000
0001
1000
,
0100
0000
0000
0000
0001
0000
1000
0100
0010
0000
0000
0000
0100
0000
0000
0000
,
0100
0000
1000
0100
0010
0100
0010
1000
,
0100
0001
0010
0100
1000
0010
0001
1000
,
0010
0001
0100
0010
0100
1000
0001
0010
,
1000
0000
0100
0001
0100
1000
0100
0001
,
0100
1000
0100
0001
0100
0001
0010
0001
,
0100
0001
0010
0001
1000
0010
1000
0100
,
1000
0010
0100
0001
1000
0010
0001
1000
,
0010
0000
0000
0010
,
0001
0000
0000
0000
0000
0000
0000
0000
0100
0000
0000
0000
0100
0000
0000
0000
0000
0000
0000
0000
0010
0000
0000
0000
0100
0000
0000
1000
0000
0000
0000
0000
0000
0100
0000
0000
0100
0000
0000
0000
0000
0000
0000
0000
0000
0000
0000
0000
;

//---------------dance-double - BASIC----------------
#NOTES:
     dance-double:
     BASIC:
     Easy:
     3:
     0.178,0.220,0.000,0.000,0.000,136.000,0.000,0.000,0.000,0.000:
00000000
00000000
00000000
00000000
,
00000000
00000000
00000000
00000000
,
00100000
00000000
10000000
00000000
,
01000000
00010000
00001000
00000100
,
00000001
00000000
00000100
00000000
,
00001000
00000000
00010000
00000000
,
00001000
00000000
00000100
00000000
,
00001000
00000000
00010000
00000000
,
01000000
00000000
01000000
00000000
,
01000000
00000000
01000000
00000000
,
10000000
00000000
00100000
00000000
,
00010000
00000000
00001000
00000000
,
00000010
00000000
00000001
00000000
,
00000010
00000000
00000001
00000000
,
00000001
00000000
00001000
00000000
,
00000100
00000000
00010000
00000000
,
00001000
00000000
00000100
00000000
,
00000001
00000000
00000010
00000000
,
00000010
00000000
00000001
00000000
,
00000100
00000000
00001000
00000000
,
00010000
00000000
01000000
00000000
,
10000000
00000000
00100000
00000000
,
00010000
00000000
00001000
00000000
,
00010000
00000000
01000000
00000000
,
00001000
00000000
00010000
00000000
,
00001000
00000100
00000001
00000000
,
00000001
00000000
00000100
00000000
,
00001000
00000000
00000100
00000000
,
00010000
00000000
00001000
00000000
,
00001000
00010000
01000000
00000000
,
10000000
00000000
00100000
00000000
,
00100000
10000000
01000000
00000000
,
10000000
00000000
01000000
00000000
,
00010000
00000000
00001000
00000000
,
00000001
00000000
00000100
00000000
,
00010000
00000000
00001000
00000000
,
00000010
00000000
00001000
00000000
,
00010000
00000000
00001000
00000000
,
00000010
00000000
00001000
00000000
,
00010000
00001000
01000000
00000000
,
00100000
00000000
00000000
00000000
,
00000000
00000000
00000000
00000000
,
00001000
00000000
00010000
00000000
,
00000100
00000000
00000010
00000000
,
00000001
00000000
00000100
00000000
,
00001000
00000000
00000000
00000000
,
00010000
00000000
01000000
00000000
,
10000000
00000000
00100000
00000000
,
00010000
00000000
00001000
00000000
,
00000100
00000000
00000000
00000000
,
00000001
00000000
00000000
00001000
00000000
00000000
00000000
00000000
,
00000000
00100000
00000000
00100000
,
00000000
00100000
00000000
01000000
,
00000000
10000000
00000000
01000000
,
00000000
00010000
00000000
00001000
,
00000000
00000100
00000000
00000001
,
00000000
00001000
00000100
00010000
,
00000000
00001000
00000000
00010000
,
00000000
00010000
00001000
01000000
,
00000000
00100000
00000000
00100000
,
00000000
00100000
00000000
00100000
,
00000000
10000000
00000000
01000000
,
00000000
00010000
00000000
00001000
,
00000000
00010000
00000000
00001000
,
00000000
00001000
00000000
00000010
,
00000000
00000010
00000000
00000001
,
00000000
00000001
00000000
00000100
,
00000000
00000000
00000000
00000000
,
00001000
00001000
00001000
00000000
;

//---------------dance-double - ANOTHER----------------
#NOTES:
     dance-double:
     ANOTHER:
     Medium:
     6:
     0.362,0.504,0.018,0.000,0.009,275.000,2.000,0.000,0.000,0.000:
00000000
00000000
00000000
00000000
,
00000000
00000000
00000000
00000000
,
00100000
10000000
01000000
00000000
00100000
00010000
01000000
00000000
,
00001000
00000000
00010000
00000000
00000010
00010000
00001000
00000000
,
00001000
00000100
00000001
00000001
00000010
00000001
00000100
00000100
,
00001000
00010000
00001000
00001000
00010000
01000000
10000000
00000000
,
10000000
00010000
01000000
01000000
00001000
00010000
00001000
00001000
,
00000010
00000001
00000100
00000100
00001000
00010000
00000100
00000000
,
00001000
01000000
00100000
10000000
,
10000000
01000000
00100000
00010000
,
00010000
01000000
00001000
00010000
,
00001000
00000100
00000001
00000000
,
00000001
00000010
00000100
00010000
,
00001000
00000100
00001000
00010000
,
01000000
10000000
00100000
00010000
,
00001000
00000010
00000100
00000000
,
00001000
00010000
00000100
00001000
,
00010000
00001000
00000100
00001000
,
00010000
00001000
00000010
00001000
,
00010000
00001000
00100000
00010000
,
00001000
00010000
00100000
00010000
,
00001000
00010000
00100000
00010000
,
00001000
00010000
01000000
00010000
,
00001000
00010000
01000000
00010000
,
10000000
00000000
01000000
00000000
00100000
00010000
01000000
00000000
,
00001000
00000000
00010000
00000000
00001000
00010000
00000100
00000000
,
00000010
00000000
00000001
00000000
00001000
00000100
00000010
00000000
,
00000001
00000000
00000100
00000000
00001000
00010000
00000100
00000000
,
00010000
00000000
00001000
00000000
00010000
00001000
00100000
00000000
,
00010000
00000000
01000000
00000000
10000000
01000000
00100000
00000000
,
00001000
00000000
00010000
00000000
01000000
00100000
00010000
00000000
,
01000000
00000000
00001000
00000000
00010000
00001000
00000100
00000000
,
00000001
00000010
00000100
00000000
,
00000001
00000100
00001000
00000000
,
00001000
00010000
01000000
00000000
,
10000000
00100000
01000000
00000000
,
00010000
10000000
01000000
00000000
,
00010000
00001000
00000100
00000000
,
00000001
00001000
00000100
00000000
,
00000010
00000100
00001000
00000000
,
00010000
00000000
00001000
00000000
,
00100000
00000000
01000000
00000000
,
10000000
10000000
01000000
01000000
,
00010000
00001000
00000100
00000100
,
00000001
00001000
00000100
00000000
00001000
00000001
00000100
00000000
,
00001000
00010000
00001000
00000000
01100000
00000000
00000000
00000000
,
00100000
10000000
01000000
01000000
,
00010000
00001000
00000100
00000100
,
00000010
00000010
00000100
00000100
,
00001001
00000000
00000000
00000000
,
00000001
00000000
00000000
00000000
00000000
00000000
00000100
00000000
00000000
00001000
00000000
00000000
00000000
00010000
00000000
00000000
,
01000000
10000000
10000000
00010000
,
00010000
00001000
00010000
01000000
,
00010000
00001000
00010000
01000000
,
00010000
00001000
00001000
00000100
,
00000100
00000001
00000100
00001000
,
00010000
01000000
10000000
00100000
,
00100000
00001000
00010000
01000000
,
00010000
00001000
00010000
01000000
,
00010000
00010000
00000000
10000000
,
01000000
00100000
00000000
00001000
,
00010000
00000010
00000000
00000100
,
00000001
00000000
00000010
00000000
00000000
00000000
00000100
00001000
,
00000100
00010000
00001000
00010000
,
01000000
00000000
10000000
00000000
00010000
00000000
10000000
01000000
,
00100000
01000000
00010000
00001000
,
00000100
00000000
00000001
00000000
00001000
00000000
00000100
00000010
,
00000001
00000000
00000000
00000100
,
00001000
00010000
00100000
00100000
;

//---------------dance-double - MANIAC----------------
#NOTES:
     dance-double:
     MANIAC:
     Hard:
     9:
     0.483,0.630,0.101,0.000,0.069,358.000,11.000,0.000,0.000,0.000:
00000000
00000000
00000000
00000000
,
00000000
00000000
00000000
00000000
,
00100000
00000000
10000000
00000000
00010000
10000000
01000000
00000000
00010000
00000000
00001000
00000000
00000100
00000000
00000001
00000000
,
00000001
00000100
00000000
00000000
00000100
00000010
00000000
00000000
00000010
00001000
00000000
00000000
00000010
00001000
00000100
00010000
,
00001000
00000000
00010000
00000000
01000000
00000000
00000000
00000000
01000000
10000000
00100000
00000000
01000000
00000000
00000000
00000000
,
00010000
00000000
10000000
00000000
01000000
00000000
00000000
00000000
00100000
00010000
01000000
00000000
00001000
00000000
00000000
00000000
,
00010000
00000000
00001000
00000000
00000100
00000000
00000000
00000000
00000001
00000010
00000100
00000000
00000001
00000000
00000000
00000000
,
00001000
00000000
00000010
00000000
00000100
00000000
00000000
00000000
00000100
00001000
00010000
00000000
00001000
00000000
00000000
00000000
,
00010000
00000000
01000000
00000000
10000000
00010000
01000000
00000000
,
00001000
00000000
00010000
00000000
00100000
01000000
00010000
00000000
,
00001000
00000000
00000100
00000000
00000001
00000010
00000100
00000000
,
00000001
00000000
00000100
00000000
00001000
00010000
00000100
00000000
,
00001000
00000000
00010000
01000000
10000000
00100000
01000000
00000000
,
10000000
00000000
01000000
00100000
00010000
10000000
01000000
00000000
,
00010000
00000000
00001000
00000100
00000001
00000010
00000100
00000000
,
00000001
00001000
00000110
00000000
,
00001000
00000000
00010000
00001000
00000000
01000000
00010000
00000000
,
10000000
00000000
00010000
01000000
00000000
00001000
00010000
00000000
,
00001000
00000000
00010000
00001000
00000000
01000000
00010000
00000000
,
10000000
00000000
00010000
01000000
00000000
00001000
00010000
00000000
,
00001000
00010000
01000000
10000000
00000000
01000000
00010000
00000000
,
00001000
00000100
00000001
00000010
00000000
00000001
00000100
00000000
,
00000010
00000100
00001000
00010000
00000000
01000000
10000000
00000000
,
00100000
00010000
00011000
00000000
,
00000010
00001000
00000001
00000100
00000000
00001000
00000000
00000000
,
00010000
00001000
00010000
01000000
00000000
10000000
00000000
00000000
,
00100000
00010000
00001000
00010000
00000000
01000000
00000000
00000000
,
00010000
00001000
00010000
00000100
00000000
00010000
00000000
00000000
,
00001000
00000000
00000000
00100000
01000000
00000000
10010000
00000000
,
10000000
00000000
00000000
00010000
01000000
00000000
00011000
00000000
,
00000010
00000000
00000000
00000001
00000100
00000000
00001001
00000000
,
00000000
00000100
00000000
00001000
00000000
00000000
00000000
00000000
,
00011000
00000000
01000000
00000000
00100000
00010000
01000000
00000000
,
00011000
00000000
00000100
00000000
00000010
00001000
00000100
00000000
,
00001001
00000000
00000100
00000000
00001000
00010000
01000000
00000000
,
10010000
00000000
01000000
00000000
00010000
00001000
00000100
00000000
,
00000001
00000010
00000001
00000100
00001000
00010000
00001000
00000000
,
01000000
10000000
01000000
00010000
00100000
01000000
00010000
00000000
,
00001000
00000100
00000001
00000010
00000001
00000100
00001000
00000000
,
00010000
01000000
10010000
00000000
,
00011000
00000000
00000000
00000100
00000000
00000000
00000001
00000000
,
00000000
00000000
00000000
00000000
,
00001000
00010000
01000000
10000000
00100000
10000000
01000000
00000000
,
00010000
00001000
00000100
00000001
00000010
00000001
00000100
00000000
,
00001000
00010000
00001000
00000100
00000001
00000010
00000100
00000000
,
00010000
00000000
00000000
00000000
,
00100000
10000000
01000000
00010000
01000000
10000000
00100000
00000000
,
00010000
00001000
00000010
00000001
00000100
00001000
00010000
00000000
,
00001000
00010000
01000000
10000000
00100000
10000000
01000000
00000000
,
00010000
00001000
00000100
00000000
00000000
00000000
00000000
00000000
,
00000001
00000001
00000000
00000000
00000000
00000000
00001000
00001000
00000000
01000000
01000000
00000000
00000000
10000000
10000000
00000000
,
00010000
00010000
00000000
00000000
00100000
00000000
00000000
00000000
00001000
00000000
00010000
00000000
00001000
00000000
00000100
00000000
,
00000001
00000000
00000010
00000000
00000100
00001000
00000001
00000100
,
00001000
00000000
00010000
00000000
01000000
10000000
00100000
10000000
,
01000000
00000000
00010000
00000000
00001000
00000100
00000001
00000010
,
00001000
00000000
00000001
00000000
00000100
00000000
00000010
00001000
,
00000100
00000000
00010000
00000000
01000000
00000000
10000000
00100000
,
00010000
00000000
00100000
00000000
10000000
00000000
01000000
00010000
,
00001000
00000000
00000100
00000000
00000001
00000000
00000010
00000001
,
00000100
00001000
00000000
00100000
,
01000000
10000000
00000000
10000000
,
01000000
00010000
00000000
00001000
,
00000100
00000001
00000000
00000010
,
00000001
00000000
00000100
00001000
00010000
01000000
10000000
00100000
,
00010000
00100000
10000000
01000000
00010000
00001000
00000100
00000010
,
00001000
00000100
00000001
00000100
00001000
00000001
00000100
00001000
,
00010000
01000000
10000000
00100000
10000000
01000000
00010000
00001000
,
00010000
00000000
00000000
00100000
,
10000000
01000000
00010000
00001000
;

//---------------dance-single - Keyboard----------------
#NOTES:
     dance-single:
     Keyboard:
     Challenge:
     12:
     0.744,0.910,0.467,0.165,0.316,500.000,51.000,18.000,0.000,0.000:
0000
0000
0000
0000
,
0000
0000
0100
0000
0000
0010
0000
0000
0001
0000
0010
0100
0010
0001
0010
0000
,
1000
0000
0000
0000
0000
0000
0010
0000
0000
0000
0000
0000
0010
0000
0000
0010
0000
0000
0200
0000
0000
0300
0000
0000
0000
0000
0000
0000
0010
0000
0000
0000
0000
0001
0000
0000
0010
0000
0000
0100
0000
0000
0000
0000
0000
0000
1000
0000
,
0100
0000
0000
0000
0000
0000
0000
0000
0000
0000
0010
0000
0001
0000
0000
0000
0000
0000
0000
0000
0000
0000
1000
0000
0100
0000
0000
0010
0000
0000
0001
0000
0000
0010
0000
0000
0100
0000
0000
1000
0000
0000
0100
0000
0000
0000
0000
0000
,
0000
0000
0100
1000
0100
0010
0001
1100
0000
0110
0000
0011
0000
1001
0000
0000
,
0000
0000
1010
0000
0000
0101
0000
0000
0110
0000
1000
0100
0010
0001
0010
0000
,
0000
0000
0010
0001
0010
1000
0100
0110
0000
0011
0000
1100
0000
1001
0000
0000
,
2000
0000
0000
0000
0010
0000
0000
0000
0001
0000
0000
0000
0010
0000
0000
0000
0100
0000
0000
0000
0010
0000
0000
0000
0001
0000
0000
0000
0010
0000
0000
0000
3200
0000
0000
0000
0000
0000
0010
0000
0000
0000
0000
0001
0000
0000
0000
0000
0000
0000
0000
0010
0000
0000
0000
0000
0000
0001
0000
0000
0000
0000
0000
0000
,
2300
0100
0001
0001
0010
0100
0010
0001
,
0001
0010
0100
0010
0001
0010
0001
3010
,
0002
0000
1000
0100
0010
0100
1000
0103
,
2000
0000
0000
0000
3002
0000
0000
0003
,
2000
0100
0010
0001
0010
3001
0002
0100
,
1000
0010
0100
1000
0100
1000
0100
0010
,
0100
1003
0100
0010
0001
0010
0001
0010
,
0100
0010
1000
0001
1000
0100
0010
0001
,
0020
1000
0100
0001
0100
1000
0100
1000
,
0001
0100
0001
0100
1000
0100
0001
0130
,
2000
0100
0010
0001
0010
0001
0010
0100
,
3200
0000
0000
0000
0302
0000
0000
0003
,
2000
0010
0001
0010
0100
3010
0002
0100
,
1000
0010
0100
1000
0100
0010
0100
1000
,
0100
1000
0100
0010
0103
0010
0001
0010
,
0100
0010
0001
0010
0100
1000
0100
0010
,
0010
0000
0000
0011
0000
1100
0000
0010
,
1100
0000
0000
0011
0000
1100
0000
1000
,
0110
0000
0000
0011
0000
0110
0000
0001
,
0110
0000
0000
1100
0000
0011
0000
0000
,
0100
0010
0001
0100
0001
1100
0000
0000
,
0001
0010
0100
1000
0100
0001
1100
0000
,
1000
0100
0010
0001
0010
1100
0000
0000
,
0001
0010
0100
0010
0001
0010
1100
0000
,
1000
0100
0001
0010
0100
0010
1001
1000
,
0100
0010
0100
0010
0001
0010
1100
0001
,
0010
0100
0010
0001
0010
1000
0110
0001
,
1000
0100
0010
0001
0010
0001
1100
0000
,
1000
0000
0000
0010
0000
0010
0001
0000
0000
0010
0000
1000
,
0100
0000
0000
1000
0000
0001
0100
0000
0000
0010
0000
0100
,
0001
0000
1000
0100
0000
0001
0010
0000
0010
0100
0000
1000
,
0100
0000
0000
0000
0100
0000
0010
0000
0000
0000
0010
0000
0001
0000
0000
1000
0010
0000
0001
0000
0000
0000
0000
0000
,
0000
1000
0000
0000
0000
1000
0000
0000
0000
0010
0000
0000
0000
0001
0000
0000
0000
0001
0000
0000
0000
0100
0000
0000
,
0000
0001
0000
0000
0000
0001
0000
0000
0000
0010
0000
0000
0000
2000
0000
0000
0000
0000
3000
0000
0000
0000
0000
0000
,
0010
0100
0010
0001
0010
0100
0010
0001
,
0100
1000
0100
0010
0100
0010
0001
0010
,
1000
0010
0001
0100
0001
0010
1000
0100
,
0010
0001
0010
0100
1000
1000
0100
0010
,
0100
1000
0100
1000
0100
0010
0100
0010
,
0100
0001
0010
0001
0010
0100
1000
0100
,
0010
1000
0100
0001
0010
0100
0010
0001
,
0010
0100
1000
0100
0010
0001
0010
0100
,
1000
1000
0000
0000
0000
0000
0001
0010
0000
1000
0100
0000
0000
0001
0010
0000
,
1000
0000
0000
0000
0100
0000
0000
0000
0001
0010
0100
0010
0001
0000
0010
0100
1000
0000
0000
0000
0000
0000
0000
0000
1100
0000
0000
0000
0000
0000
0000
0000
0011
0000
0000
0000
0000
0000
0000
0000
1100
0000
0000
0000
0000
0000
0000
0000
0000
0000
0000
0000
0000
0000
0000
0000
0011
0000
0000
0000
0000
0000
0000
0000
,
0000
0000
1000
0000
0100
0000
0010
0000
0001
0000
0010
0000
0100
0010
1000
0000
,
0110
0000
0011
1100
0110
1100
0000
0110
,
0000
0000
1000
0000
0100
0000
0010
0000
0001
0000
0010
0000
0100
1000
0100
0000
,
0010
0000
1100
0110
0011
0110
0000
1100
,
0000
0000
0001
0000
0010
0000
0100
0000
0010
0000
0001
0000
0010
0100
1000
0000
,
0010
0000
1100
0110
0011
1100
0000
0110
,
0000
0000
1000
0000
0100
0000
0010
0000
0001
0000
0010
0000
0100
1000
0010
0000
,
0001
0010
0100
0010
0001
0010
1000
0010
,
0001
0010
0100
1000
0100
0010
1000
0100
,
0010
0001
0010
0100
0010
0001
1000
0100
,
0010
0001
0010
0100
1000
0100
0010
0001
,
0010
1000
0100
0010
0001
0010
0100
1000
,
1000
0100
0100
0010
0010
0001
0001
0010
,
0100
1000
0100
0010
0001
0010
0100
0010
,
0100
0100
0010
0010
1000
1000
0001
0001
,
0010
0100
0010
0001
0010
0100
2002
0000
,
0000
0000
3003
0000
;
